2001 год: Космическая одиссея (1968)
# 92 on IMDb Top Rated Movies »

Johnny Depp »
# 100 on STARmeter

In a future where a special police unit is able to arrest murderers before they commit their crimes, an officer from that unit is himself accused of a future murder.

En caso de que su idioma de preferencia no esté disponible, el contenido del curso se impartirá en inglés.

General :
Complete name : Guerra De Los Mundos (2005) 1080p Dual.mkv
Format : Matroska
Format version : Version 4 / Version 2
File size : 2.68 GiB
Duration : 1h 56mn
Overall bit rate : 3 288 Kbps
Movie name : War of the Worlds [2005][1080p Dual][wWw.CinemaniaHD.org]
Encoded date : UTC 2013-09-19 18:53:05
Writing application : mkvmerge v6.1.0 (‘Old Devil’) built on Mar 2 2013 14:32:37
Writing library : libebml v1.3.0 + libmatroska v1.4.0

Audio #1
ID : 2
Format : AC-3
Format/Info : Audio Coding 3
Mode extension : CM (complete main)
Format settings, Endianness : Big
Codec ID : A_AC3
Duration : 1h 56mn
Bit rate mode : Constant
Bit rate : 640 Kbps
Channel count : 6 channels
Channel positions : Front: L C R, Side: L R, LFE
Sampling rate : 48.0 KHz
Bit depth : 16 bits
Compression mode : Lossy
Stream size : 534 MiB (19%)
Title : Español Latino [wWw.CinemaniaHD.org]
Default : Yes
Forced : No

Audio #2
ID : 3
Format : AC-3
Format/Info : Audio Coding 3
Mode extension : CM (complete main)
Format settings, Endianness : Big
Codec ID : A_AC3
Duration : 1h 56mn
Bit rate mode : Constant
Bit rate : 448 Kbps
Channel count : 6 channels
Channel positions : Front: L C R, Side: L R, LFE
Sampling rate : 48.0 KHz
Bit depth : 16 bits
Compression mode : Lossy
Stream size : 373 MiB (14%)
Title : Ingles [wWw.CinemaniaHD.org]
Default : No
Forced : No

2001 год: Космическая одиссея (1968)
# 92 on IMDb Top Rated Movies »

Johnny Depp »
# 100 on STARmeter

In a future where a special police unit is able to arrest murderers before they commit their crimes, an officer from that unit is himself accused of a future murder.

2001 год: Космическая одиссея (1968)
# 92 on IMDb Top Rated Movies »

Johnny Depp »
# 100 on STARmeter

In a future where a special police unit is able to arrest murderers before they commit their crimes, an officer from that unit is himself accused of a future murder.

En caso de que su idioma de preferencia no esté disponible, el contenido del curso se impartirá en inglés.

Trailer de La Guerra de los Mundos (War of the Worlds/2005.


la guerra de los mundos HD - YouTube

Posted by 2018 article

51rzNBoUw2L